#TITLE:纯情;
#SUBTITLE:;
#ARTIST:高耀太;
#TITLETRANSLIT:;
#SUBTITLETRANSLIT:;
#ARTISTTRANSLIT:;
#CREDIT:;
#BANNER:2-logo.jpg;
#BACKGROUND:2.jpg;
#LYRICSPATH:;
#CDTITLE:Lan.png;
#MUSIC:2.mp3;
#OFFSET:-0.060;
#SAMPLESTART:100.000;
#SAMPLELENGTH:12.000;
#SELECTABLE:YES;
#BPMS:0.000=137.000,267.500=205.500,267.875=68.500,268.000=137.000,268.500=205.500,268.875=68.500,269.000=137.000,269.500=205.500,269.875=68.500,270.000=205.500,270.375=68.500,270.500=205.500,270.875=68.500,271.000=205.500,271.375=68.500,271.500=205.500,271.875=68.500,272.000=137.000;
#STOPS:;
#BGCHANGES:;
// cache tags:
#FIRSTBEAT:16.000;
#LASTBEAT:338.000;
#SONGFILENAME:Songs/SDO 2/2/2.sm;
#HASMUSIC:1;
#HASBANNER:1;
#MUSICLENGTH:150.482;
// end cache tags

//---------------dance-single - sky----------------
#NOTES:
     dance-single:
     sky:
     Hard:
     9:
     0.833,0.842,1.000,0.013,0.286,650.000,225.000,2.000,0.000,1.000:

0000
0000
0000
0000
,
0000
0000
0000
0000
,
0000
0000
0000
0000
,
0000
0000
0000
0000
,
0101
0010
0100
0000
1100
0000
0010
0000
0101
0010
0100
0000
1100
0000
0010
0000
,
0101
0010
0100
0000
1100
0000
0010
0000
0101
0010
0100
0000
1100
0000
0010
0000
,
0101
0010
0100
0000
1100
0000
0010
0000
0101
0010
0100
0000
1100
0000
0010
0000
,
0101
0010
0100
0000
1100
0000
0010
0000
0101
0010
0100
0000
1100
0000
0010
0000
,
0101
0010
0001
0000
1100
0000
0010
0000
0101
0010
0001
0000
1100
0000
0010
0000
,
0101
0010
0001
0000
1100
0000
0010
0000
0101
0010
0001
0000
1100
0000
0010
0000
,
0101
0010
0001
0000
1100
0000
0010
0000
0101
0010
0001
0000
1100
0000
0010
0000
,
0011
0110
1100
0010
,
1010
0101
1010
0100
,
0101
0010
0100
1000
0100
0010
0001
0000
1010
0100
0001
0000
1000
0000
0100
0000
,
1001
0101
1001
0010
,
1010
0100
0010
0001
0010
0100
1000
0000
0101
0010
0100
0000
0001
0000
0010
0000
,
1001
0110
1001
0010
,
0101
0010
0100
1000
0100
0010
0001
0000
1010
0000
0100
0000
0001
0000
0100
0000
,
2001
0010
0001
0010
,
0010
0000
0100
0000
0010
0000
0100
0000
0001
0010
0100
0000
0010
0000
0100
0000
,
3001
0010
0100
0000
1000
0000
0100
0000
0010
0000
0100
0000
1001
0000
0000
0000
,
0001
0010
0100
0000
1000
0000
0100
0000
0010
0000
0100
0000
1001
0000
0000
0000
,
0001
0010
0100
0000
1000
0000
0100
0000
0010
0000
0100
0000
0010
0000
0100
0000
,
0001
0010
0100
0000
1000
0000
0100
0000
1010
0000
0100
0000
0010
0000
0001
0000
,
1000
0100
0010
0000
0001
0000
0100
0000
0010
0000
0100
0000
1001
0000
0000
0000
,
1000
0100
0010
0000
0001
0000
0100
0000
0010
0000
0100
0000
1001
0000
0000
0000
,
1000
0100
0010
0000
0001
0000
0100
0000
0010
0000
0100
0000
0010
0000
0100
0000
,
1001
0110
1001
0110
,
0001
0010
0100
0000
1000
0000
0100
0000
0001
0000
0100
0000
1001
0000
0000
0000
,
0001
0010
0100
0000
1000
0000
0100
0000
0001
0000
0100
0000
1001
0000
0000
0000
,
0001
0010
0100
0000
1000
0000
0100
0000
0001
0000
0100
0000
0001
0000
0100
0000
,
0001
0010
0100
0000
1000
0000
0100
0000
1010
0000
0100
0000
0010
0000
0001
0000
,
1000
0100
0010
0000
0001
0000
0010
0000
1000
0000
0010
0000
1001
0000
0000
0000
,
1000
0100
0010
0000
0001
0000
0010
0000
1000
0000
0010
0000
1001
0000
0000
0000
,
1000
0100
0010
0000
0001
0000
0010
0000
0001
0010
0100
0000
1000
0000
0010
0000
,
1001
0110
1001
0110
,
0101
0010
0100
0000
1100
0000
0010
0000
0101
0010
0100
0000
1100
0000
0010
0000
,
0101
0010
0100
0000
1100
0000
0010
0000
0101
0010
0100
0000
1100
0000
0010
0000
,
0101
0010
0100
0000
1100
0000
0010
0000
0101
0010
0100
0000
1100
0000
0010
0000
,
0101
0010
0100
0000
1100
0000
0010
0000
0101
0010
0100
0000
1100
0000
0010
0000
,
0101
0010
0001
0000
1100
0000
0010
0000
0101
0010
0001
0000
1100
0000
0010
0000
,
0101
0010
0001
0000
1100
0000
0010
0000
0101
0010
0001
0000
1100
0000
0010
0000
,
0101
0010
0001
0000
1100
0000
0010
0000
0101
0010
0001
0000
1100
0000
0010
0000
,
1001
0110
1001
0010
,
1010
0101
1010
0100
,
0101
0010
0100
1000
0100
0010
0001
0000
1010
0100
0001
0000
1000
0000
0100
0000
,
1001
0101
1001
0010
,
1010
0100
0010
0001
0010
0100
1000
0000
0101
0010
0100
0000
0001
0000
0010
0000
,
1001
0110
1001
0010
,
0101
0010
0100
1000
0100
0010
0001
0000
1010
0000
0100
0000
0001
0000
0100
0000
,
2001
0010
0001
0010
,
0010
0000
0100
0000
0010
0000
0100
0000
0001
0010
0100
0000
0010
0000
0100
0000
,
3011
0100
0101
1000
0110
0100
0101
1000
,
0110
0100
0101
1000
0011
0100
0101
1000
,
0110
1000
1010
0001
0110
1000
1010
0001
,
0110
1000
1010
0001
0110
1000
1010
0001
,
1100
0010
1010
0001
0110
0010
1010
0001
,
0110
0010
1010
0001
0110
0010
1010
0001
,
1010
0100
0010
0000
0011
0000
0100
0000
1010
0100
0010
0000
0011
0000
0100
0000
,
1010
0100
0010
0000
0011
0000
0100
0000
1010
0100
0010
0000
0011
0000
0100
0000
,
1010
0101
0011
0101
,
0110
0100
0101
1000
0011
0100
0001
0010
,
1100
1000
0010
0001
0110
1000
1010
0001
,
0110
1000
0010
0001
0110
1000
1010
0001
,
0110
0010
1010
0001
1100
0010
1010
0001
,
1100
0010
1010
0001
0110
0010
1010
0100
,
1001
0110
1010
0110
1001
0110
1010
0000
,
0011
0000
1100
0000
0011
1100
0110
1100
,
0101
0010
0100
0000
1100
0000
0100
0000
0010
0000
0100
0000
1001
0000
0000
0000
,
0101
0010
0100
0000
1100
0000
0100
0000
0010
0000
0100
0000
1001
0000
0000
0000
,
0101
0010
0100
0000
1100
0000
0100
0000
0010
0000
0100
0000
0010
0000
0100
0000
,
0101
0010
0100
0000
1100
0000
0100
0000
1010
0000
0100
0000
0010
0000
0001
0000
,
1010
0100
0010
0000
0011
0000
0100
0000
0010
0000
0100
0000
1001
0000
0000
0000
,
1010
0100
0010
0000
0011
0000
0100
0000
0010
0000
0100
0000
1001
0000
0000
0000
,
1010
0100
0010
0000
0011
0000
0100
0000
0010
0000
0100
0000
0010
0000
0100
0000
,
1001
0110
1001
0110
,
0101
0010
0100
0000
1100
0000
0100
0000
0001
0000
0100
0000
1001
0000
0000
0000
,
0101
0010
0100
0000
1100
0000
0100
0000
0001
0000
0100
0000
1001
0000
0000
0000
,
0101
0010
0100
0000
1100
0000
0100
0000
0001
0000
0100
0000
0001
0000
0100
0000
,
0101
0010
0100
0000
1100
0000
0100
0000
1010
0000
0100
0000
0010
0000
0001
0000
,
1010
0100
0010
0000
0011
0000
0010
0000
1000
0000
0010
0000
1001
0000
0000
0000
,
1010
0100
0010
0000
0011
0000
0010
0000
1000
0000
0010
0000
1001
0000
0000
0000
,
1010
0100
0010
0000
0011
0000
0010
0000
0001
0010
0100
0000
1000
0000
0010
0000
,
1001
0110
1001
0110
,
0011
0010
0010
0000
;
